Spartacus – Segunda Temporada [2012] [BdRip] [Latino] [V.Servidores]

, Publicado 2 años atras - 3002 visitas
Seelej
223 posts

Descargar Spartacus – Segunda Temporada [2012] [BdRip] [Latino] [V.Servidores] Gratis 1 link Spartacus – Segunda Temporada [2012] [BdRip] [Latino] [V.Servidores] por Mediafire o Torrent

Spartacus: Vengeance – Segunda Temporada (2012)
BDRip | XviD | AC3 | 550 MB c/u (x10) | Español Latino | SerieTV | 2012

TÍTULO ORIGINAL: Spartacus: Vengeance (TV Series)
OTROS TÍTULOS: Spartacus: Venganza / Espartaco: Venganza
AÑO: 2012
DURACIÓN: 55 min.
PAÍS: USA
DIRECTOR: Steven S. DeKnight (Creator), Rick Jacobson
GUIÓN: Steven S. DeKnight
MÚSICA: Joseph LoDuca
FOTOGRAFÍA: Aaron Morton
REPARTO: Liam McIntyre, Manu Bennett, Katrina Law, Dustin Clare, Lucy Lawless , Peter Mensah, Nick Tarabay, Craig Walsh-Wrightson, Stephen Lovatt, Marisa Ramirez, Antonio Te Maioha, Jaime Murray, Jeffrey Thomas, Lesley-Ann Brandt, Gareth Williams, Shane Rangi, Jessica Grace Smith, Peter Feeney, Raicho Vasilev, Josef Brown, Steven A. Davis, Ioane King, Luke Pegler
PRODUCTORA: Starz Media
GÉNERO: Serie de TV. Acción | Antigua Roma. Esclavitud. Erótico. Secuela

NFO:

Código:
General
Complete name                    : Spartacus.Vengeance.S02E01.2012.BDRip.LATiNO.XviD.avi
Format                           : AVI
Format/Info                      : Audio Video Interleave
File size                        : 577 MiB
Duration                         : 57mn 34s
Overall bit rate                 : 1 400 Kbps
Movie name                       : Spartacus.Vengeance.S02E01.2012.BDRip.LATiNO.XviD

Video
ID                               : 0
Format                           : MPEG-4 Visual
Format profile                   : Advanced Simple@L5
Format settings, BVOP            : 2
Format settings, QPel            : No
Format settings, GMC             : No warppoints
Format settings, Matrix          : Default (H.263)
Codec ID                         : XVID
Codec ID/Hint                    : XviD
Duration                         : 57mn 34s
Bit rate                         : 1 199 Kbps
Width                            : 640 pixels
Height                           : 352 pixels
Display aspect ratio             : 16:9
Frame rate                       : 23.976 fps
Color space                      : YUV
Chroma subsampling               : 4:2:0
Bit depth                        : 8 bits
Scan type                        : Progressive
Compression mode                 : Lossy
Bits/(Pixel*Frame)               : 0.222
Stream size                      : 494 MiB (86%)
Writing library                  : XviD 1.2.1 (UTC 2008-12-04)

Audio
ID                               : 1
Format                           : AC-3
Format/Info                      : Audio Coding 3
Mode extension                   : CM (complete main)
Codec ID                         : 2000
Duration                         : 57mn 34s
Bit rate mode                    : Constant
Bit rate                         : 192 Kbps
Channel(s)                       : 2 channels
Channel positions                : Front: L R
Sampling rate                    : 48.0 KHz
Bit depth                        : 16 bits
Compression mode                 : Lossy
Stream size                      : 79.1 MiB (14%)
Alignment                        : Split accross interleaves
Interleave, duration             : 42 ms (1.00 video frame)
Interleave, preload duration     : 500 ms
Language                         : Spanish

Serie de TV (2012). 10 episodios. Tras la destrucción y huida de la casa de Léntulo Batiato (John Hannah), Espartaco (Liam McIntyre) deja sus ataduras de esclavo y es proclamado líder de un grupo de antiguos gladiadores que provocarán la Tercera Guerra Servil contra los romanos. Sexo, sangre, brutales batallas y sobre todo sed de venganza son las características de Spartacus Vengeance.

TODOS LOS LINKS SON INTERCAMBIABLES!!!

SHARPFILE —> ( La mejor velocidad de descarga )

http://www.sharpfile.com/t3vrnzjw/2SPRTKVSLAT_by_seelej.part01.rar.html

http://www.sharpfile.com/k64zw2qm/2SPRTKVSLAT_by_seelej.part02.rar.html

http://www.sharpfile.com/fdkgvbc8xy2/2SPRTKVSLAT_by_seelej.part03.rar.html

http://www.sharpfile.com/mtdfn6x2wcq/2SPRTKVSLAT_by_seelej.part04.rar.html

http://www.sharpfile.com/cyhjr93dwnv6/2SPRTKVSLAT_by_seelej.part05.rar.html

http://www.sharpfile.com/wynmxfhzk2/2SPRTKVSLAT_by_seelej.part06.rar.html

http://www.sharpfile.com/hwvr23g6d7b/2SPRTKVSLAT_by_seelej.part07.rar.html

http://www.sharpfile.com/zmwvf2r38bht/2SPRTKVSLAT_by_seelej.part08.rar.html

http://www.sharpfile.com/8z4k7m9fd/2SPRTKVSLAT_by_seelej.part09.rar.html

UPLOADED

http://ul.to/3y1x7my3

http://ul.to/hew2gf2m

http://ul.to/fk5bw5hx

http://ul.to/zatc590r

http://ul.to/nik6z0cu

http://ul.to/vbdgvmz9

http://ul.to/3qioy9kh

http://ul.to/iawcycdy

http://ul.to/k4i5i65d

RAPIDGATOR

http://rapidgator.net/file/43196810/2SPRTKVSLAT_by_seelej.part01.rar.html

http://rapidgator.net/file/43197613/2SPRTKVSLAT_by_seelej.part02.rar.html

http://rapidgator.net/file/43198018/2SPRTKVSLAT_by_seelej.part03.rar.html

http://rapidgator.net/file/43198391/2SPRTKVSLAT_by_seelej.part04.rar.html

http://rapidgator.net/file/43198770/2SPRTKVSLAT_by_seelej.part05.rar.html

http://rapidgator.net/file/43199103/2SPRTKVSLAT_by_seelej.part06.rar.html

http://rapidgator.net/file/43199552/2SPRTKVSLAT_by_seelej.part07.rar.html

http://rapidgator.net/file/43200007/2SPRTKVSLAT_by_seelej.part08.rar.html

http://rapidgator.net/file/43200044/2SPRTKVSLAT_by_seelej.part09.rar.html

FILEGAG

http://filegag.com/dno3iln5eb1j

http://filegag.com/bg767rf9xynb

http://filegag.com/haxdvz0q0j7u

http://filegag.com/pc90mo7fkk70

http://filegag.com/4tiino8f1293

http://filegag.com/f9fta8pvoyvv

http://filegag.com/w0dd41e8oy81

http://filegag.com/pxha649h9lrp

http://filegag.com/ggx4l5ucykrk

FREAKSHARE

http://freakshare.com/files/fp1bk0os/2SPRTKVSLAT_by_seelej.part01.rar.html

http://freakshare.com/files/iz0a2tgm/2SPRTKVSLAT_by_seelej.part02.rar.html

http://freakshare.com/files/oe98cs8v/2SPRTKVSLAT_by_seelej.part03.rar.html

http://freakshare.com/files/e0bjv75x/2SPRTKVSLAT_by_seelej.part04.rar.html

http://freakshare.com/files/6kb43vrw/2SPRTKVSLAT_by_seelej.part05.rar.html

http://freakshare.com/files/1r1rm10a/2SPRTKVSLAT_by_seelej.part06.rar.html

http://freakshare.com/files/r8os1ejy/2SPRTKVSLAT_by_seelej.part07.rar.html

http://freakshare.com/files/99y6ns1o/2SPRTKVSLAT_by_seelej.part08.rar.html

http://freakshare.com/files/pm0y0c60/2SPRTKVSLAT_by_seelej.part09.rar.html







Deja un comentario

Tu dirección de correo electrónico no será publicada.

Puedes usar las siguientes etiquetas y atributos HTML: <a href="" title=""> <abbr title=""> <acronym title=""> <b> <blockquote cite=""> <cite> <code> <del datetime=""> <em> <i> <q cite=""> <strike> <strong>

One thought on “Spartacus – Segunda Temporada [2012] [BdRip] [Latino] [V.Servidores]
  1. Exelente post man 10 puntos